Wildes Russland / Wild Russia. Episode 3 - Siberia / Дикая природа России. Серия 3 - Сибирь (2008) [ReUp]

Posted By: RSU75
Wildes Russland / Wild Russia. Episode 3 - Siberia / Дикая природа России. Серия 3 - Сибирь (2008) [ReUp]

Wildes Russland / Wild Russia. Episode 3 - Siberia / Дикая природа России. Серия 3 - Сибирь (2008)
BDRip | MKV | AVC 1280x712, ~ 6.8 Mbps | 0hr 44mn | 3.40 GB
English: DTS, 6 ch, 1510 kbps; English \ German \ Russian (2 translations): AC3, 6 ch, 640 kbps
Subtitles: English, German, Russian
Genre: Documentary
IMDB Rating: 8.2/10 (316 votes)


Director: Tobias Mennle, Ivo Nörenberg
Stars: Christian Brückner, Jason Hildebrandt, Paterson Joseph

A unique journey into the most remote and unexplored corners of Russia…

Season 1, Episode 3 - Siberia: It accounts for 10% of all land on our planet. Siberia is renowned for its frosts and known worldwide as one of the coldest places on earth. Nevertheless, Siberia became home to a large variety of species of wildlife, animals and other creatures.

Subtitles in other languages: subtitleseeker.com



General
Unique ID : 250023528149509182985947369191460597411 (0xBC18C7ABE19429F681118DC41AAC6EA3)
Complete name : D:\Wr\WildR.08.E3.Siberia.7p.All1.mkv
Format : Matroska
Format version : Version 4 / Version 2
File size : 3.40 GiB
Duration : 44mn 32s
Overall bit rate : 10.9 Mbps
Movie name : Wild Russia (2008) - Avaxhome.cc
Encoded date : UTC 2014-01-24 17:53:23
Writing application : mkvmerge v6.3.0 ('You can't stop me!') built on Jun 28 2013 20:09:41
Writing library : libebml v1.3.0 + libmatroska v1.4.0

Video
ID : 1
Format : AVC
Format/Info : Advanced Video Codec
Format profile : [email protected]
Format settings, CABAC : Yes
Format settings, ReFrames : 9 frames
Codec ID : V_MPEG4/ISO/AVC
Duration : 44mn 32s
Bit rate : 6 844 Kbps
Width : 1 280 pixels
Height : 712 pixels
Display aspect ratio : 16:9
Frame rate mode : Constant
Frame rate : 25.000 fps
Color space : YUV
Chroma subsampling : 4:2:0
Bit depth : 8 bits
Scan type : Progressive
Bits/(Pixel*Frame) : 0.300
Stream size : 2.06 GiB (61%)
Title : Episode 3: Siberia
Writing library : x264 core 80 r1376M 3feaec2
Encoding settings : cabac=1 / ref=9 / deblock=1:-3:-3 / analyse=0x3:0x113 / me=umh / subme=10 / psy=1 / psy_rd=0.8:0.1 / mixed_ref=1 / me_range=48 / chroma_me=1 / trellis=2 / 8x8dct=1 / cqm=0 / deadzone=21,11 / fast_pskip=0 / chroma_qp_offset=-3 / threads=6 / sliced_threads=0 / nr=0 / decimate=0 / mbaff=0 / constrained_intra=0 / bframes=12 / b_pyramid=2 / b_adapt=2 / b_bias=0 / direct=3 / wpredb=1 / wpredp=2 / keyint=250 / keyint_min=25 / scenecut=40 / rc=2pass / mbtree=0 / bitrate=6844 / ratetol=1.0 / qcomp=0.60 / qpmin=10 / qpmax=51 / qpstep=4 / cplxblur=20.0 / qblur=0.5 / ip_ratio=1.40 / pb_ratio=1.30 / aq=1:0.70
Language : English
Default : Yes
Forced : No

Audio #1
ID : 2
Format : DTS
Format/Info : Digital Theater Systems
Mode : 16
Format settings, Endianness : Big
Codec ID : A_DTS
Duration : 44mn 32s
Bit rate mode : Constant
Bit rate : 1 509 Kbps
Channel(s) : 6 channels
Channel positions : Front: L C R, Side: L R, LFE
Sampling rate : 48.0 KHz
Bit depth : 24 bits
Compression mode : Lossy
Stream size : 481 MiB (14%)
Title : DTS 5.1 1536 kbps
Language : English
Default : Yes
Forced : No

Audio #2
ID : 3
Format : AC-3
Format/Info : Audio Coding 3
Mode extension : CM (complete main)
Format settings, Endianness : Big
Codec ID : A_AC3
Duration : 44mn 32s
Bit rate mode : Constant
Bit rate : 640 Kbps
Channel(s) : 6 channels
Channel positions : Front: L C R, Side: L R, LFE
Sampling rate : 48.0 KHz
Bit depth : 16 bits
Compression mode : Lossy
Stream size : 204 MiB (6%)
Title : AC3 5.1 640 kbps
Language : English
Default : No
Forced : No

Audio #3
ID : 4
Format : AC-3
Format/Info : Audio Coding 3
Mode extension : CM (complete main)
Format settings, Endianness : Big
Codec ID : A_AC3
Duration : 44mn 32s
Bit rate mode : Constant
Bit rate : 640 Kbps
Channel(s) : 6 channels
Channel positions : Front: L C R, Side: L R, LFE
Sampling rate : 48.0 KHz
Bit depth : 16 bits
Compression mode : Lossy
Stream size : 204 MiB (6%)
Title : AC3 5.1 640 kbps
Language : German
Default : No
Forced : No

Audio #4
ID : 5
Format : AC-3
Format/Info : Audio Coding 3
Mode extension : CM (complete main)
Format settings, Endianness : Big
Codec ID : A_AC3
Duration : 44mn 32s
Bit rate mode : Constant
Bit rate : 640 Kbps
Channel(s) : 6 channels
Channel positions : Front: L C R, Side: L R, LFE
Sampling rate : 48.0 KHz
Bit depth : 16 bits
Compression mode : Lossy
Stream size : 204 MiB (6%)
Title : AC3 5.1 640 kbps Одноголосый закадровый, Н.Козий
Language : Russian
Default : No
Forced : No

Audio #5
ID : 6
Format : AC-3
Format/Info : Audio Coding 3
Mode extension : CM (complete main)
Format settings, Endianness : Big
Codec ID : A_AC3
Duration : 44mn 32s
Bit rate mode : Constant
Bit rate : 640 Kbps
Channel(s) : 6 channels
Channel positions : Front: L C R, Side: L R, LFE
Sampling rate : 48.0 KHz
Bit depth : 16 bits
Compression mode : Lossy
Stream size : 204 MiB (6%)
Title : AC3 5.1 640 kbps Одноголосый закадровый, Курдов
Language : Russian
Default : No
Forced : No

Text #1
ID : 7
Format : UTF-8
Codec ID : S_TEXT/UTF8
Codec ID/Info : UTF-8 Plain Text
Language : English
Default : No
Forced : No

Text #2
ID : 8
Format : UTF-8
Codec ID : S_TEXT/UTF8
Codec ID/Info : UTF-8 Plain Text
Language : German
Default : No
Forced : No

Text #3
ID : 9
Format : UTF-8
Codec ID : S_TEXT/UTF8
Codec ID/Info : UTF-8 Plain Text
Language : Russian
Default : No
Forced : No

Menu
00:00:00.000 : en:00:00:00.000
00:08:23.639 : en:00:08:23.639
00:20:45.200 : en:00:20:45.200
00:26:57.920 : en:00:26:57.920
00:36:45.639 : en:00:36:45.639
00:44:10.599 : en:00:44:10.599



Название: Дикая природа России
Оригинальное название: Wildes Russland / Wild Russia
Год выпуска: 2008
Жанр: Документальный
Выпущено: Германия
Режиссер: Тобиас Менле, Иво Норенберг

О фильме: Совершите уникальное путешествие в самые отдаленные и неизведанные уголки России, поражающие богатством дикой природы, где можно побывать в огнедышащих кратерах вулканов и в ледовых пустынях, встретить белого медведя и амурского тигра.

Серия 3 - Сибирь: На ее долю приходится 10 % всей суши на нашей планете. Сибирь славится своими морозами и известна миру, как одно из самых холодных мест на земле. Тем не менее, Сибирь стала домом для большого множества видов диких животных, зверей и прочих существ, включая мускусного оленя, верблюда, газель и редкий вид ящерицы - сибирского углозуба, который может провести несколько лет в замороженном состоянии при температуре - 40градусов С и выжить. От холодного севера до южных степей - все это Сибирь, во всем ее великолепии.

Перевод: Одноголосый закадровый, Н.Козий \ Одноголосый закадровый, Курдов (HDСlub)


Screenshots (click to enlarge to original size):

Wildes 			  		  	   		   	  		 			  	 			   		   	  		  	   	 			   		  	   		      		  	   	 			   		 			  		  	 			 Russland / Wild Russia. Episode 3 - Siberia / Дикая природа России. Серия 3 - Сибирь (2008) [ReUp]

Wildes Russland / Wild Russia. Episode 3 - Siberia / Дикая природа России. Серия 3 - Сибирь (2008) [ReUp]

Wildes Russland / Wild Russia. Episode 3 - Siberia / Дикая природа России. Серия 3 - Сибирь (2008) [ReUp]

Wildes Russland / Wild Russia. Episode 3 - Siberia / Дикая природа России. Серия 3 - Сибирь (2008) [ReUp]

Wildes Russland / Wild Russia. Episode 3 - Siberia / Дикая природа России. Серия 3 - Сибирь (2008) [ReUp]



–––––––––––––––––––––––––––––––––––––––-
>>> "Documentary" <<<OR >>> "Wildes Russland" <<<
–––––––––––––––––––––––––––––––––––––––-
>>> Visit Blog RSU75 Here <<<
–––––––––––––––––––––––––––––––––––––––-
proxyadder |ablockt.com |iblockt.com |