Mountain - King Biscuit Flower Hour Presents Greatest Hits Live (2000)

Posted By: uff
Mountain - King Biscuit Flower Hour Presents Greatest Hits Live (2000)

Mountain - King Biscuit Flower Hour Presents Greatest Hits Live (2000)
Rock | 1cd | EAC Rip | Flac + Cue + Log | covers
King Biscuit Flower Hour, 70710-88047 | rec: 1974 | 440Mb

Mountain Comprising of Leslie West, Felix Pappalardi, Corky Laing Recorded Live November 1974 at Capitol Theatre New Jersey. This was their First Performance after Reforming and Includes all the Classic Mountain Songs Including the Anthem Nantucket Sleighride and the Storming Rock and Roll Covers Roll Over Beethoven and Whole Lotta Shakin' Going On. Also Included is an Interview with Guitarist Leslie West and Plenty of Photos, Memorabilia and Info in the Classic King Biscuit Hour Tradition. ~Amazon

Track listing
01. You Better Believe It (6:54)
02. Theme for an Imaginary Western (5:00)
03. Never In My Life (4:28)
04. Jingle Bells (2:40)
05. Get Out Of My Life Woman (6:03)
06. Mississippi Queen (6:54)
07. It's For You (7:43)
08. Nantucket Sleighride (10:39)
09. Roll Over Beethoven (1:39)
10. Whole Lotta Shaking Going On (2:47)
11. Bonus Interview (6:06)


EAC extraction logfile from 28. February 2008, 15:35 for CD
Mountain / Greatest Hits Live

Used drive : SONY CD-RW CRX230EE Adapter: 0 ID: 1
Read mode : Secure with NO C2, accurate stream, disable cache
Read offset correction : 6
Overread into Lead-In and Lead-Out : No

Used output format : C:\Utilities\flac\flac-1.1.4-win\bin\flac.exe (User Defined Encoder)
128 kBit/s
Additional command line options : -V -8 -T "artist=%a" -T "title=%t" -T "album=%g" -T "date=%y" -T "tracknumber=%n" -T "genre=%m" %s

Other options :
Fill up missing offset samples with silence : Yes
Delete leading and trailing silent blocks : No
Installed external ASPI interface


Track 1
Filename M:\Uploading\E1\Mountain - King Biscuit Flower Hour (2000) [FLAC]\01 - You Better Believe It.wav

Pre-gap length 0:00:02.00

Peak level 89.2 %
Track quality 100.0 %
Test CRC 674F9CF8
Copy CRC 674F9CF8
Copy OK

Track 2
Filename M:\Uploading\E1\Mountain - King Biscuit Flower Hour (2000) [FLAC]\02 - Theme for an Imaginary Western.wav

Peak level 89.9 %
Track quality 100.0 %
Test CRC 57BF5CF1
Copy CRC 57BF5CF1
Copy OK

Track 3
Filename M:\Uploading\E1\Mountain - King Biscuit Flower Hour (2000) [FLAC]\03 - Never In My Life.wav

Peak level 92.1 %
Track quality 100.0 %
Test CRC 0A25B296
Copy CRC 0A25B296
Copy OK

Track 4
Filename M:\Uploading\E1\Mountain - King Biscuit Flower Hour (2000) [FLAC]\04 - Jingle Bells.wav

Peak level 85.6 %
Track quality 100.0 %
Test CRC 67ED9859
Copy CRC 67ED9859
Copy OK

Track 5
Filename M:\Uploading\E1\Mountain - King Biscuit Flower Hour (2000) [FLAC]\05 - Get Out Of My Life Woman.wav

Peak level 90.0 %
Track quality 100.0 %
Test CRC 251B491E
Copy CRC 251B491E
Copy OK

Track 6
Filename M:\Uploading\E1\Mountain - King Biscuit Flower Hour (2000) [FLAC]\06 - Mississippi Queen.wav

Peak level 100.0 %
Track quality 100.0 %
Test CRC 579D916E
Copy CRC 579D916E
Copy OK

Track 7
Filename M:\Uploading\E1\Mountain - King Biscuit Flower Hour (2000) [FLAC]\07 - It's For You.wav

Peak level 94.0 %
Track quality 100.0 %
Test CRC A86D9599
Copy CRC A86D9599
Copy OK

Track 8
Filename M:\Uploading\E1\Mountain - King Biscuit Flower Hour (2000) [FLAC]\08 - Nantucket Sleighride.wav

Peak level 100.0 %
Track quality 100.0 %
Test CRC 56AA430F
Copy CRC 56AA430F
Copy OK

Track 9
Filename M:\Uploading\E1\Mountain - King Biscuit Flower Hour (2000) [FLAC]\09 - Roll Over Beethoven.wav

Peak level 87.9 %
Track quality 100.0 %
Test CRC C744B847
Copy CRC C744B847
Copy OK

Track 10
Filename M:\Uploading\E1\Mountain - King Biscuit Flower Hour (2000) [FLAC]\10 - Whole Lotta Shaking Going On.wav

Peak level 90.3 %
Track quality 100.0 %
Test CRC CBF580CB
Copy CRC CBF580CB
Copy OK

Track 11
Filename M:\Uploading\E1\Mountain - King Biscuit Flower Hour (2000) [FLAC]\11 - Bonus Interview.wav

Pre-gap length 0:00:02.02

Peak level 88.2 %
Track quality 100.0 %
Test CRC C64B8ABE
Copy CRC C64B8ABE
Copy OK

No errors occured


End of status report



[CUETools log; Date: 2017. 01. 12. 11:19:50; Version: 2.1.6]
[CTDB TOCID: 6.Rd.PfjrBW.awOdpNeh3gMm5g4-] found.
Track | CTDB Status
1 | (13/13) Accurately ripped
2 | (13/13) Accurately ripped
3 | (13/13) Accurately ripped
4 | (12/13) Accurately ripped, or (1/13) differs in 23516 samples @01:22:30-01:22:50
5 | (13/13) Accurately ripped
6 | (13/13) Accurately ripped
7 | (13/13) Accurately ripped
8 | (13/13) Accurately ripped
9 | (13/13) Accurately ripped
10 | (13/13) Accurately ripped
11 | (12/13) Accurately ripped
[AccurateRip ID: 001961a6-00dcb70f-9b0e4d0b] found.
Track [ CRC | V2 ] Status
01 [bdd9d25c|be622593] (03+07/18) Accurately ripped
02 [fae33eb8|7418b9c4] (03+07/18) Accurately ripped
03 [2e87ece8|3e24fdc0] (03+07/18) Accurately ripped
04 [48186d61|2e4e7cdf] (03+06/17) Accurately ripped
05 [26746e23|d3e153da] (03+07/18) Accurately ripped
06 [c2d687a4|699cb0af] (03+07/18) Accurately ripped
07 [c9b55e74|eecf9f8c] (03+07/18) Accurately ripped
08 [13fd3afd|d637890a] (03+07/18) Accurately ripped
09 [89c6f810|6a04b29c] (03+07/18) Accurately ripped
10 [f7e6b4df|58e22928] (03+06/17) Accurately ripped
11 [156be92e|ffa38394] (03+07/18) Accurately ripped
Offsetted by -669:
01 [e45f5823] (03/18) Accurately ripped
02 [e2ce5c9b] (03/18) Accurately ripped
03 [de656292] (03/18) Accurately ripped
04 [1bbe1ff2] (03/17) Accurately ripped
05 [8342fe51] (03/18) Accurately ripped
06 [6c803c5a] (03/18) Accurately ripped
07 [d5315d88] (03/18) Accurately ripped
08 [6895bd1b] (03/18) Accurately ripped
09 [2b3bdbae] (03/18) Accurately ripped
10 [4113721d] (03/17) Accurately ripped
11 [461c213d] (03/18) Accurately ripped
Offsetted by -667:
01 [a0a888ca] (03/18) Accurately ripped
02 [2487b50d] (03/18) Accurately ripped
03 [cb463dd1] (03/18) Accurately ripped
04 [1d2c8d73] (00/17) No match (V2 was not tested)
05 [55e09695] (03/18) Accurately ripped
06 [61e9b3de] (03/18) Accurately ripped
07 [a9696b67] (03/18) Accurately ripped
08 [690a0f5e] (03/18) Accurately ripped
09 [19eb0895] (03/18) Accurately ripped
10 [dd940020] (03/17) Accurately ripped
11 [5455a2e0] (03/18) Accurately ripped

Track Peak [ CRC32 ] [W/O NULL] [ LOG ]
– 100,0 [BFD0F7C1] [B959904C]
01 89,2 [674F9CF8] [FCE3CC3D] CRC32
02 89,9 [57BF5CF1] [655D587E] CRC32
03 92,1 [0A25B296] [896FCFDD] CRC32
04 85,6 [67ED9859] [743EB3B4] CRC32
05 90,0 [251B491E] [B10255F8] CRC32
06 100,0 [579D916E] [492E5513] CRC32
07 94,0 [A86D9599] [0681F186] CRC32
08 100,0 [56AA430F] [3B44AB33] CRC32
09 87,9 [C744B847] [588710B3] CRC32
10 90,3 [CBF580CB] [CF4A0559] CRC32
11 88,2 [C64B8ABE] [08F851F3] CRC32


original uploader unknown
proxyadder |ablockt.com |iblockt.com |